BT下载|动漫下载|动画|漫画 - 简单动漫

动漫bt下载 | 动画下载 | 动画片下载 | 资源搜索 | 发布资源 | 加入收藏

首页 » 动画分类 » 新番连载 » 【飞沐team】铠甲勇士之光影传奇 03 (2009)(1080P)[MKV]

基本信息

共享用户: 简单动漫

发布时间: 2020/12/01 13:40:04

更新时间: 无更新

分享情况: 做种 , 下载 , 完成

健 康 度: 0

点击此处下载种子

使用磁力链下载

Tracker信息

Announce:

http://tracker.36dm.com:2710/announce

Scrape:

http://tracker.36dm.com:2710/scrape

Announce list:
  • http://www.36dm.com:2710/announce
  • http://tracker.36dm.com:2710/announce

资源介绍

Format : Matroska

Format version : Version 4

File size : 4.25 GiB

Duration : 24 min 2 s

Overall bit rate mode : Variable

Overall bit rate : 25.3 Mb/s

Writing application : mkvmerge v50.0.0 ('Awakenings') 64-bit

Writing library : libebml v1.4.0 + libmatroska v1.6.2

Video

ID : 1

Format : AVC

Format/Info : Advanced Video Codec

Format profile : [email protected]

Format settings : CABAC / 4 Ref Frames

Format settings, CABAC : Yes

Format settings, Reference fra : 4 frames

Format settings, GOP : M=3, N=25

Codec ID : V_MPEG4/ISO/AVC

Duration : 24 min 2 s

Bit rate mode : Variable

Bit rate : 24.9 Mb/s

Maximum bit rate : 30.0 Mb/s

Width : 1 920 pixels

Height : 1 080 pixels

Display aspect ratio : 16:9

Frame rate mode : Variable

Frame rate : 50.000 FPS

Original frame rate : 25.000 FPS

Color space : YUV

Chroma subsampling : 4:2:0

Bit depth : 8 bits

Scan type : Interlaced

Scan type, store method : Separated fields

Scan order : Top Field First

Bits/(Pixel*Frame) : 0.240

Stream size : 4.19 GiB (98%)

Default : Yes

Forced : No

Color range : Limited

Color primaries : BT.709

Transfer characteristics : BT.709

Matrix coefficients : BT.709

Audio

ID : 2

Format : AC-3

Format/Info : Audio Coding 3

Commercial name : Dolby Digital

Codec ID : A_AC3

Duration : 24 min 2 s

Bit rate mode : Constant

Bit rate : 384 kb/s

Channel(s) : 2 channels

Channel layout : L R

Sampling rate : 48.0 kHz

Frame rate : 31.250 FPS (1536 SPF)

Compression mode : Lossy

Stream size : 66.0 MiB (2%)

Service kind : Complete Main

Default : Yes

Forced : No

文件信息 文件总数:1,文件总大小:4.3GB

 
  • 视频文件 铠甲勇士 03.mkv(4.3GB)
 

下载地址 磁力链接可以使用迅雷等主流软件进行下载

 
 

网友评论(0)

正在加载评论,请稍候......
发表我的看法(评论内容长度最多允许 1000 字)
评论内容
验证码