BT下载|动漫下载|动画|漫画 - 简单动漫

动漫bt下载 | 动画下载 | 动画片下载 | 资源搜索 | 发布资源 | 加入收藏

首页 » 动画分类 » 剧场版 » [philosophy-raws][弃宝之岛:遥与魔法镜][MOVIE 2D][BDRIP][10bit压制][国日英三语][美版][无黑边]

基本信息

共享用户: 简单动漫

发布时间: 2013/04/01 21:24:37

更新时间: 无更新

分享情况: 做种 , 下载 , 完成

健 康 度: 0

点击此处下载种子

使用磁力链下载



Tracker信息

Announce:

http://tracker.36dm.com:2710/announce

Scrape:

http://tracker.36dm.com:2710/scrape

Announce list:
  • http://www.36dm.com:2710/announce
  • http://tracker.36dm.com:2710/announce

资源介绍

36DM.COM
内容紹介
大切にしていた宝物は、いま、どこにありますか?

[内容解説]
神社の先にあった「ふしぎな島」での大冒険!!

ある日、高校生の遙は神社で「無くなったお母さんの形見の『手鏡』を返して下さい。」とお祈りを
していました。すると、目の前に不思議な「きつね」がいるではありませんか!後をつけて奥に入っ
ていくと・・・なんとおとぎの国のような「ホッタラケの島」に迷い込んでしまいます!
そこは人間達が「ホッタラケ」にしたもので出来た島でした。遙は、なくなった手鏡がきっとこの島
にあるはずだと思い、「きつね」に見えた島の住人のテオとそれを探し始めます。しかしそこは人間
が入ってはいけない島。
遙は手鏡を見つけ、この不思議な島からもとの世界に戻れるのでしょうか?

[特殊内容/特典]
■仕様: 特製ケース/美術設定集(100ヘ゜ーシ゛予定)/4Cヒ゜クチャーレーヘ゛ル(2枚)
■本編DISC1) ※Blu-rayスタンタ゛ート゛・エテ゛ィションと共通
■特典DISC2) 特典映像 (※青色のコンテンツはBDオリシ゛ナル)
◆映画の達人集:「脚本・監督 佐藤信介」/番外編「キャラクターデザイン編」/番外編「絵コンテ編」
◆日本全国「きつね」昔話
◆イベント映像集:綾瀬はるか 浴衣姿で伏見稲荷大社を参拝♪/綾瀬はるか "軍艦島"へ行く♪ / 演出・塩谷直義 in NEW YORK/完成披露試写会/初日舞台挨拶/切符deアート
◆予告集<特報/劇場予告編/TV-SPOT9種/PR映像/FNSチャリティ-CM>
◆予告集

[スタッフキャスト]
【キャラクターボイス】
綾瀬はるか
沢城みゆき
戸田菜穂
大森南朋
谷村美月
家弓家正
松元環季

【スタッフ】
製作: 亀山千広 石川光久
企画: 石原隆 石川みちる
プロデューサー: 関口大輔 森下勝司
監督: 佐藤信介
脚本: 安達寛高 佐藤信介
キャラクターデザイン: 石森連 ヒラタリョウ
演出: 塩谷直義
アニメーションプロデューサー: 高木真司
ラインプロデューサー: 牧野治康
アシスタントプロデューサー: 稲葉直人
CG監督: 長崎高士
美術監督: 野村正信
編集: 今井剛
音響監督: 宇井孝司
音楽: 上田禎
主題歌: スピッツ「君は太陽」(ユニバーサルJ)

製作: フジテレビジョン/Production I.G/電通 /ポニーキャニオン
制作: Production I.G
制作協力: ポリゴン・ピクチュアズ

(C)2009フジテレビジョン / Production I.G / 電通 / ポニーキャニオン
内容(「キネマ旬報社」データベースより)
ほったらかしにされた物が集まる不思議な島に迷い込んだ主人公の冒険を描いたファンタジーCGアニメ。幼い頃に母を亡くした高校生・遥は、ある日訪れた神社で奇妙なきつねを見付け、後を追う。特典として絵コンテ集を封入する。
内容(「Oricon」データベースより)
Production I.G×フジテレビのタッグで贈る3DCGアニメ「ホッタラケの島 ~遥と魔法の鏡~」がBD化。ある日、高校生の遥が神社で、なくした母の手鏡を返してもらえるよう祈っていたところ、不思議なきつねが現れる。後をつけて奥に入っていくと、おとぎの国のような島に迷い込んでしまう…。豪華特典付きBD2枚組。完全初回限定生産。
------------------------------
关于日版BD说明以下四点
1.日版BD只有16bit thd音轨,而20bit THD音轨只有美版才有,故BDRIP采用音质更高的美版BD音轨。
2.日版BD(包括特典内容)顶上切了两个像素,之后补上了黑边,而美版没有这样做。(上图为日版,下图为美版)
36DM.COM
36DM.COM
3.日版特典均为AC3有损,而美版均为THD无损,但是由于美版切割与日版不同(例如SP3 美版就是一开始领先15帧,之后每过一个小片段比日版少11帧的黑屏时间),所以部分还是用AC3。
4.日版只有2D版,3D版的话目前只有德版有。所以不要说啥3D版画质怎么怎么样的。本来就没有好的片源,压制3D又不能用滤镜,我能有什么办法。
下面是说一下美版BDRIP。
1.视频CRF18。
2音轨上5.1的日配和英配均来自美版BD,2.0的日配和评论音轨来自日版BD,2.0的国配音轨来自台版DVD。
3.字幕正片英文字幕来自美版BD,日文字幕来自日版BD。
4.OST什么的CD找不到,自己肯定是不会花钱买这个的。
5.SP1没有是为了与日版BD对应。
--------------------------------

General
Unique ID : 179378946669205911198303095234447232238 (0x86F320E3F3F6A10498A48BA1EE0F4CEE)
Complete name : D:\HI10P anime\[philosophy-raws][Oblivion Island:Haruka and the Magic Mirror][US Ver]\[philosophy-raws][Oblivion Island][MOVIEUS][BDRIP][Hi10P FLAC AC3][1920X1080].mkv
Format : Matroska
Format version : Version 4 / Version 2
File size : 8.22 GiB
Duration : 1h 39mn
Overall bit rate mode : Variable
Overall bit rate : 11.8 Mbps
Encoded date : UTC 2013-03-23 01:40:54
Writing application : mkvmerge v6.1.0 ('Old Devil') built on Mar 4 2013 09:10:42
Writing library : libebml v1.3.0 + libmatroska v1.4.0

Video
ID : 1
Format : AVC
Format/Info : Advanced Video Codec
Format profile : High [email protected]
Format settings, CABAC : Yes
Format settings, ReFrames : 8 frames
Codec ID : V_MPEG4/ISO/AVC
Duration : 1h 39mn
Width : 1 920 pixels
Height : 1 080 pixels
Display aspect ratio : 16:9
Frame rate mode : Constant
Frame rate : 23.976 fps
Color space : YUV
Chroma subsampling : 4:2:0
Bit depth : 10 bits
Scan type : Progressive
Writing library : x264 core 130 r2274+704+39 8b99b60 tMod [[email protected]:2:0 X86_64]
Encoding settings : cabac=1 / ref=8 / deblock=1:0:0 / analyse=0x3:0x133 / me=umh / subme=10 / psy=1 / fade_compensate=0.00 / psy_rd=0.48:0.12 / mixed_ref=1 / me_range=32 / chroma_me=1 / trellis=2 / 8x8dct=1 / cqm=0 / deadzone=21,11 / fast_pskip=0 / chroma_qp_offset=-3 / threads=12 / lookahead_threads=3 / sliced_threads=0 / nr=0 / decimate=0 / interlaced=0 / bluray_compat=0 / constrained_intra=0 / fgo=3 / bframes=12 / b_pyramid=2 / b_adapt=2 / b_bias=0 / direct=3 / weightb=1 / open_gop=0 / weightp=2 / keyint=infinite / keyint_min=1 / scenecut=40 / intra_refresh=0 / rc_lookahead=72 / rc=crf / mbtree=1 / crf=18.0000 / qcomp=0.80 / qpmin=0 / qpmax=81 / qpstep=4 / ip_ratio=1.40 / aq=3:0.90
Language : English
Default : Yes
Forced : No

Audio #1
ID : 2
Format : FLAC
Format/Info : Free Lossless Audio Codec
Codec ID : A_FLAC
Duration : 1h 39mn
Bit rate mode : Variable
Channel(s) : 6 channels
Sampling rate : 48.0 KHz
Bit depth : 24 bits
Writing library : libFLAC 1.2.1 (UTC 2007-09-17)
Language : Japanese
Default : Yes
Forced : No

Audio #2
ID : 3
Format : FLAC
Format/Info : Free Lossless Audio Codec
Codec ID : A_FLAC
Duration : 1h 39mn
Bit rate mode : Variable
Channel(s) : 6 channels
Sampling rate : 48.0 KHz
Bit depth : 16 bits
Writing library : libFLAC 1.2.1 (UTC 2007-09-17)
Language : English
Default : No
Forced : No

Audio #3
ID : 4
Format : FLAC
Format/Info : Free Lossless Audio Codec
Codec ID : A_FLAC
Duration : 1h 39mn
Bit rate mode : Variable
Channel(s) : 2 channels
Sampling rate : 48.0 KHz
Bit depth : 16 bits
Delay relative to video : 13s 305ms
Writing library : libFLAC 1.2.1 (UTC 2007-09-17)
Language : Japanese
Default : No
Forced : No

Audio #4
ID : 5
Format : AC-3
Format/Info : Audio Coding 3
Mode extension : CM (complete main)
Format settings, Endianness : Big
Codec ID : A_AC3
Duration : 1h 39mn
Bit rate mode : Constant
Bit rate : 192 Kbps
Channel(s) : 2 channels
Channel positions : Front: L R
Sampling rate : 48.0 KHz
Bit depth : 16 bits
Compression mode : Lossy
Delay relative to video : 14s 306ms
Stream size : 136 MiB (2%)
Language : Chinese
Default : No
Forced : No

Audio #5
ID : 6
Format : AC-3
Format/Info : Audio Coding 3
Mode extension : CM (complete main)
Format settings, Endianness : Big
Codec ID : A_AC3
Duration : 1h 39mn
Bit rate mode : Constant
Bit rate : 192 Kbps
Channel(s) : 2 channels
Channel positions : Front: L R
Sampling rate : 48.0 KHz
Bit depth : 16 bits
Compression mode : Lossy
Delay relative to video : 13s 305ms
Stream size : 136 MiB (2%)
Title : audio commrntary
Language : Japanese
Default : No
Forced : No

Text #1
ID : 7
Format : PGS
Muxing mode : zlib
Codec ID : S_HDMV/PGS
Codec ID/Info : The same subtitle format used on BDs/HD-DVDs
Language : English
Default : Yes
Forced : No

Text #2
ID : 8
Format : PGS
Muxing mode : zlib
Codec ID : S_HDMV/PGS
Codec ID/Info : The same subtitle format used on BDs/HD-DVDs
Language : Japanese
Default : No
Forced : No




文件信息 文件总数:8,文件总大小:15.1GB

 
  • Folder [philosophy-raws][Oblivion Island:Haruka and the Magic Mirror][US Ver]
    • Folder Bonus
      • 视频文件 [philosophy-raws][Oblivion Island][SP3US][BDRIP][Hi10P FLAC][1920X1080].mkv(4.0GB)
      • 视频文件 [philosophy-raws][Oblivion Island][SP2US][BDRIP][Hi10P FLAC][1920X1080].mkv(1.8GB)
      • 视频文件 [philosophy-raws][Oblivion Island][CM3US][BDRIP][Hi10P FLAC][1920X1080].mkv(320.7MB)
      • 视频文件 [philosophy-raws][Oblivion Island][CM1US][BDRIP][Hi10P FLAC][1920X1080].mkv(289.9MB)
      • 视频文件 [philosophy-raws][Oblivion Island][CM2US][BDRIP][Hi10P FLAC][1920X1080].mkv(254.7MB)
      • 视频文件 [philosophy-raws][Oblivion Island][CM4US][BDRIP][Hi10P AC3][1920X1080].mkv(113.6MB)
      • 视频文件 [philosophy-raws][Oblivion Island][MenuUS][BDRIP][Hi10P AC3][1920X1080].mkv(54.2MB)
    • 视频文件 [philosophy-raws][Oblivion Island][MOVIEUS][BDRIP][Hi10P FLAC AC3][1920X1080].mkv(8.2GB)
 

下载地址 磁力链接可以使用迅雷等主流软件进行下载

 
 

网友评论(0)

正在加载评论,请稍候......
发表我的看法(评论内容长度最多允许 1000 字)
评论内容
验证码