BT下载|动漫下载|动画|漫画 - 简单动漫

动漫bt下载 | 动画下载 | 动画片下载 | 资源搜索 | 发布资源 | 加入收藏

首页 » 动画分类 » 完整动画 » [DDD] 夏目友人帳&萤火之森 TV+OVA+剧场版 Natsume Yuujinchou & Hotarubi no Mori e [BDrip 1080p HEVC FLAC][10bits]

基本信息

共享用户: 简单动漫

发布时间: 2020/10/21 00:35:55

更新时间: 无更新

分享情况: 做种 , 下载 , 完成

健 康 度: 0

点击此处下载种子

使用磁力链下载

Tracker信息

Announce:

http://tracker.36dm.com:2710/announce

Scrape:

http://tracker.36dm.com:2710/scrape

Announce list:
  • http://www.36dm.com:2710/announce
  • http://tracker.36dm.com:2710/announce

资源介绍

算是怨念比较悠久的合集。

字幕包搜集于网络:华盟+天香+SOSG+诸神,感谢原字幕组。

General Unique ID : 277611441208051228578111335964039323473 (0xD0DA04CCFA3CA4F977DF13DC34921F51) Complete name : D:\[DDD] 夏目友人帳と蛍火の杜へ [BDrip 1080p HEVC FLAC][10bits]\夏目友人帳 第01話 「猫と友人帳」.mkv Format : Matroska Format version : Version 4 File size : 720 MiB Duration : 23 min 52 s Overall bit rate mode : Variable Overall bit rate : 4 216 kb/s Encoded date : UTC 2020-10-17 07:56:28 Writing application : mkvmerge v43.0.0 ('The Quartermaster') 64-bit Writing library : libebml v1.3.10 + libmatroska v1.5.2 Video ID : 1 Format : HEVC Format/Info : High Efficiency Video Coding Format profile : Main [email protected]@Main Codec ID : V_MPEGH/ISO/HEVC Duration : 23 min 52 s Bit rate : 3 519 kb/s Width : 1 920 pixels Height : 1 080 pixels Display aspect ratio : 16:9 Frame rate mode : Constant Frame rate : 29.970 (30000/1001) FPS Color space : YUV Chroma subsampling : 4:2:0 Bit depth : 10 bits Bits/(Pixel*Frame) : 0.057 Stream size : 601 MiB (83%) Writing library : x265 3.4g73f96ff39:[Windows][GCC 11.0.0][64 bit] 10bit Encoding settings : cpuid=1111039 / frame-threads=3 / numa-pools=8 / wpp / no-pmode / no-pme / no-psnr / no-ssim / log-level=2 / input-csp=1 / input-res=1920x1080 / interlace=0 / total-frames=42918 / level-idc=0 / high-tier=1 / uhd-bd=0 / ref=4 / no-allow-non-conformance / no-repeat-headers / annexb / no-aud / no-hrd / info / hash=0 / no-temporal-layers / no-open-gop / min-keyint=29 / keyint=360 / gop-lookahead=0 / bframes=6 / b-adapt=2 / b-pyramid / bframe-bias=0 / rc-lookahead=60 / lookahead-slices=6 / scenecut=40 / hist-scenecut=0 / radl=0 / no-splice / no-intra-refresh / ctu=32 / min-cu-size=8 / no-rect / no-amp / max-tu-size=32 / tu-inter-depth=2 / tu-intra-depth=2 / limit-tu=0 / rdoq-level=2 / dynamic-rd=0.00 / no-ssim-rd / signhide / no-tskip / nr-intra=0 / nr-inter=0 / no-constrained-intra / no-strong-intra-smoothing / max-merge=3 / limit-refs=1 / no-limit-modes / me=3 / subme=5 / merange=48 / temporal-mvp / no-frame-dup / no-hme / weightp / weightb / no-analyze-src-pics / deblock=-1:-1 / no-sao / no-sao-non-deblock / rd=4 / selective-sao=0 / no-early-skip / rskip / no-fast-intra / no-tskip-fast / no-cu-lossless / b-intra / no-splitrd-skip / rdpenalty=0 / psy-rd=2.00 / psy-rdoq=3.00 / no-rd-refine / no-lossless / cbqpoffs=-2 / crqpoffs=-2 / rc=crf / crf=17.0 / qcomp=0.65 / qpstep=4 / stats-write=0 / stats-read=0 / ipratio=1.40 / pbratio=1.20 / aq-mode=2 / aq-strength=0.90 / cutree / zone-count=0 / no-strict-cbr / qg-size=32 / no-rc-grain / qpmax=69 / qpmin=0 / no-const-vbv / sar=0 / overscan=0 / videoformat=5 / range=0 / colorprim=2 / transfer=2 / colormatrix=2 / chromaloc=0 / display-window=0 / cll=0,0 / min-luma=0 / max-luma=1023 / log2-max-poc-lsb=8 / vui-timing-info / vui-hrd-info / slices=1 / no-opt-qp-pps / no-opt-ref-list-length-pps / no-multi-pass-opt-rps / scenecut-bias=0.05 / hist-threshold=0.01 / no-opt-cu-delta-qp / no-aq-motion / no-hdr10 / no-hdr10-opt / no-dhdr10-opt / no-idr-recovery-sei / analysis-reuse-level=0 / analysis-save-reuse-level=0 / analysis-load-reuse-level=0 / scale-factor=0 / refine-intra=0 / refine-inter=0 / refine-mv=1 / refine-ctu-distortion=0 / no-limit-sao / ctu-info=0 / no-lowpass-dct / refine-analysis-type=0 / copy-pic=1 / max-ausize-factor=1.0 / no-dynamic-refine / no-single-sei / no-hevc-aq / no-svt / no-field / qp-adaptation-range=1.00 / no-scenecut-aware-qpconformance-window-offsets / right=0 / bottom=0 / decoder-max-rate=0 Default : Yes Forced : No Audio ID : 2 Format : FLAC Format/Info : Free Lossless Audio Codec Codec ID : A_FLAC Duration : 23 min 52 s Bit rate mode : Variable Bit rate : 696 kb/s Channel(s) : 2 channels Channel layout : L R Sampling rate : 48.0 kHz Frame rate : 11.719 FPS (4096 SPF) Bit depth : 16 bits Compression mode : Lossless Stream size : 119 MiB (16%) Writing library : libFLAC 1.3.3 (UTC 2019-08-04) Default : Yes Forced : No Menu 00:00:00.000 : :オープニング 00:01:31.024 : :A-Part 00:10:48.047 : :B-Part 00:22:05.991 : :エンディング 00:23:36.014 : :次回予告

文件信息 文件总数:125,文件总大小:55.4GB

 
  • Folder [DDD] 夏目友人帳と蛍火の杜へ [BDrip 1080p HEVC FLAC][10bits]
    • 视频文件 夏目友人帳 劇場版 うつせみに結ぶ.mkv(3.0GB)
    • 视频文件 蛍火の杜へ.mkv(1.0GB)
    • 视频文件 夏目友人帳 第03話 「八ツ原の怪人」.mkv(862.6MB)
    • 视频文件 夏目友人帳 第15話 「春に溶ける」.mkv(845.6MB)
    • 视频文件 夏目友人帳 第21話 「不死の想い」.mkv(835.8MB)
    • 视频文件 夏目友人帳 第79話 「鈴鳴るの切り株」.mkv(770.1MB)
    • 视频文件 夏目友人帳 第76話 「ながれゆくは」.mkv(735.5MB)
    • 视频文件 夏目友人帳 第01話 「猫と友人帳」.mkv(719.8MB)
    • 视频文件 夏目友人帳 第48話 「月分祭」.mkv(710MB)
    • 视频文件 夏目友人帳 第49話 「祀られた神様」.mkv(700.3MB)
    • 视频文件 夏目友人帳 第37話 「映すもの」.mkv(699.4MB)
    • 视频文件 夏目友人帳 第14話 「奪われた友人帳」.mkv(691.5MB)
    • 视频文件 夏目友人帳 第80話 「夢幻のかけら」.mkv(690.8MB)
    • 视频文件 夏目友人帳 第74話 「ゴモチの恩人」.mkv(689.9MB)
    • 视频文件 夏目友人帳 第22話 「桜並木の彼」.mkv(684.6MB)
    • 视频文件 夏目友人帳 第55話 「変わらぬ姿」.mkv(677.9MB)
    • 视频文件 夏目友人帳 第68話 「つきひぐい」.mkv(677.1MB)
    • 视频文件 夏目友人帳 第12話 「五日印」.mkv(672.9MB)
    • 视频文件 夏目友人帳 第52話 「遠き家路」.mkv(664.6MB)
    • 视频文件 夏目友人帳 第24話 「呪術師の会」.mkv(663.7MB)
    • 视频文件 夏目友人帳 第26話 「人と妖」.mkv(663MB)
    • 视频文件 夏目友人帳 第40話 「とらわれた夏目」.mkv(662.2MB)
    • 视频文件 夏目友人帳 第29話 「偽りの友人」.mkv(661.6MB)
    • 视频文件 夏目友人帳 第07話 「子狐のぼうし」.mkv(656.2MB)
    • 视频文件 夏目友人帳 第75話 「いつかくる日」.mkv(655.8MB)
    • 视频文件 夏目友人帳 第13話 「秋の夜宴」.mkv(655.4MB)
    • 视频文件 夏目友人帳 第28話 「浮春の郷」.mkv(654.8MB)
    • 视频文件 夏目友人帳 第66話 「一夜盃」.mkv(654.7MB)
    • 视频文件 夏目友人帳 第70話 「二体さま」.mkv(654.6MB)
    • 视频文件 夏目友人帳 第47話 「惑いし頃に」.mkv(652.3MB)
    • 视频文件 夏目友人帳 第63話 「険しきをゆく」.mkv(648.1MB)
    • 视频文件 夏目友人帳 第62話 「歪みなき世界」.mkv(646.7MB)
    • 视频文件 夏目友人帳 第77話 「閉ざされた部屋」.mkv(646.4MB)
    • 视频文件 夏目友人帳 第25話 「廃屋の少年」.mkv(645.3MB)
    • 视频文件 夏目友人帳 第69話 「明日咲く」.mkv(642.4MB)
    • 视频文件 夏目友人帳 第30話 「幼き日々に」.mkv(637.3MB)
    • 视频文件 夏目友人帳 第44話 「過ぎし日の君に」.mkv(637MB)
    • 视频文件 夏目友人帳 第42話 「小さきもの」.mkv(629.4MB)
    • 视频文件 夏目友人帳 第36話 「割れた鏡」.mkv(625.9MB)
    • 视频文件 夏目友人帳 第78話 「大切なモノ」.mkv(622.8MB)
    • 视频文件 夏目友人帳 第57話 「祓い屋からの手紙」.mkv(621.9MB)
    • 视频文件 夏目友人帳 第33話 「祓い屋」.mkv(621MB)
    • 视频文件 夏目友人帳 第10話 「アサギの琴」.mkv(620.2MB)
    • 视频文件 夏目友人帳 第20話 「呼んではならぬ」.mkv(619.5MB)
    • 视频文件 夏目友人帳 第23話 「仮家」.mkv(614.1MB)
    • 视频文件 夏目友人帳 第56話 「悪戯な雨」.mkv(612.4MB)
    • 视频文件 夏目友人帳 第09話 「あやかし祓い」.mkv(611.7MB)
    • 视频文件 夏目友人帳 第32話 「人ならぬもの」.mkv(611.4MB)
    • 视频文件 夏目友人帳 第39話 「夏目遊戯帳」.mkv(609.5MB)
    • 视频文件 夏目友人帳 第51話 「記憶の扉」.mkv(607.9MB)
    • 视频文件 夏目友人帳 第27話 「妖しきものの名」.mkv(606.8MB)
    • 视频文件 夏目友人帳 第61話 「遠い祭り火」.mkv(606.7MB)
    • 视频文件 夏目友人帳 第59話 「結んではいけない」.mkv(604.6MB)
    • 视频文件 夏目友人帳 第08話 「儚い光」.mkv(603.2MB)
    • 视频文件 夏目友人帳 第41話 「東方の森」.mkv(602.1MB)
    • 视频文件 夏目友人帳 第34話 「子狐のとけい」.mkv(600.6MB)
    • 视频文件 夏目友人帳 第05話 「心色の切符」.mkv(600.2MB)
    • 视频文件 夏目友人帳 第02話 「露神の祠」.mkv(594.1MB)
    • 视频文件 夏目友人帳 第60話 「音無しの谷」.mkv(591.6MB)
    • 视频文件 夏目友人帳 第71話 「違える瞳」.mkv(591.6MB)
    • 视频文件 夏目友人帳 第65話 「儚き者へ」.mkv(591.1MB)
    • 视频文件 夏目友人帳 第73話 「西村と北本」.mkv(590.8MB)
    • 视频文件 夏目友人帳 第35話 「秋風切って」.mkv(589.2MB)
    • 视频文件 夏目友人帳 第06話 「水底の燕」.mkv(587.7MB)
    • 视频文件 夏目友人帳 第43話 「代答」.mkv(583.2MB)
    • 视频文件 夏目友人帳 第11話 「ニャンコ徒然帳」.mkv(581.8MB)
    • 视频文件 夏目友人帳 第19話 「少女の陣」.mkv(575.9MB)
    • 视频文件 夏目友人帳 第67話 「遊戯の宴」.mkv(568.1MB)
    • 视频文件 夏目友人帳 第50話 「一枚の写真」.mkv(566.6MB)
    • 视频文件 夏目友人帳 第18話 「約束の樹」.mkv(566.4MB)
    • 视频文件 夏目友人帳 第58話 「連鎖の陰」.mkv(565MB)
    • 视频文件 夏目友人帳 第46話 「人と妖の間(はざま)で」.mkv(563.7MB)
    • 视频文件 夏目友人帳 第31話 「蔵にひそむもの」.mkv(563MB)
    • 视频文件 夏目友人帳 第53話 「ニャンコ先生とはじめてのおつかい」.mkv(561.7MB)
    • 视频文件 夏目友人帳 第04話 「時雨と少女」.mkv(561.5MB)
    • 视频文件 夏目友人帳 第17話 「雛、孵る」.mkv(556.7MB)
    • 视频文件 夏目友人帳 第45話 「硝子のむこう」.mkv(552.6MB)
    • 视频文件 夏目友人帳 第54話 「いつかゆきのひに」.mkv(546.3MB)
    • 视频文件 夏目友人帳 第64話 「塔子と滋」.mkv(528MB)
    • 视频文件 夏目友人帳 第72話 「縛られしもの」.mkv(525.7MB)
    • 视频文件 夏目友人帳 第38話 「帰る場所」.mkv(503.2MB)
    • 视频文件 夏目友人帳 第16話 「妖退治 湯けむり行」.mkv(502MB)
    • 视频文件 夏目友人帳 メニュー 26.mkv(147.3MB)
    • 压缩文件 OVA特典(Windows Theme - 主题桌面图标时钟etc.).rar(146.5MB)
    • 视频文件 夏目友人帳 メニュー 24.mkv(142.5MB)
    • 视频文件 夏目友人帳 メニュー 22.mkv(130.1MB)
    • 视频文件 夏目友人帳 メニュー 23.mkv(126.4MB)
    • 视频文件 夏目友人帳 映像特典 OP6.mkv(87.6MB)
    • 视频文件 夏目友人帳 映像特典 ED1.mkv(86.5MB)
    • 视频文件 夏目友人帳 映像特典 OP3.mkv(75.7MB)
    • 视频文件 夏目友人帳 メニュー 25.mkv(72.1MB)
    • 视频文件 夏目友人帳 映像特典 OP2.mkv(72MB)
    • 视频文件 夏目友人帳 映像特典 OP5.mkv(62.6MB)
    • 视频文件 夏目友人帳 映像特典 ED6.mkv(59.9MB)
    • 视频文件 夏目友人帳 映像特典 OP1.mkv(59MB)
    • 视频文件 夏目友人帳 映像特典 ED4.mkv(57.6MB)
    • 视频文件 夏目友人帳 映像特典 ED5.mkv(56MB)
    • 视频文件 夏目友人帳 映像特典 OP4.mkv(55.4MB)
    • 视频文件 夏目友人帳 映像特典 ED3.mkv(42.9MB)
    • 视频文件 夏目友人帳 劇場版 うつせみに結ぶ メニュー.mkv(42.4MB)
    • 视频文件 夏目友人帳 メニュー 21.mkv(41.6MB)
    • 视频文件 夏目友人帳 メニュー 06.mkv(40.8MB)
    • 视频文件 夏目友人帳 メニュー 09.mkv(35.7MB)
    • 视频文件 夏目友人帳 映像特典 ED2.mkv(35.3MB)
    • 视频文件 夏目友人帳 メニュー 08.mkv(34.8MB)
    • 视频文件 夏目友人帳 メニュー 07.mkv(34.2MB)
    • 视频文件 夏目友人帳 メニュー 18.mkv(32.3MB)
    • 视频文件 夏目友人帳 メニュー 19.mkv(32MB)
    • 视频文件 夏目友人帳 メニュー 17.mkv(31.1MB)
    • 视频文件 夏目友人帳 メニュー 20.mkv(31.1MB)
    • 视频文件 夏目友人帳 メニュー 10.mkv(30.4MB)
    • 视频文件 夏目友人帳 メニュー 16.mkv(28.6MB)
    • 视频文件 蛍火の杜へ メニュー.mkv(18.6MB)
    • 视频文件 夏目友人帳 メニュー 04.mkv(16.4MB)
    • 视频文件 夏目友人帳 メニュー 05.mkv(16.3MB)
    • 视频文件 夏目友人帳 メニュー 14.mkv(14.9MB)
    • 视频文件 夏目友人帳 メニュー 03.mkv(14.9MB)
    • 视频文件 夏目友人帳 メニュー 02.mkv(14.1MB)
    • 视频文件 夏目友人帳 メニュー 01.mkv(14.1MB)
    • 视频文件 夏目友人帳 メニュー 11.mkv(13.1MB)
    • 视频文件 夏目友人帳 メニュー 15.mkv(12.7MB)
    • 视频文件 夏目友人帳 メニュー 13.mkv(10MB)
    • 视频文件 夏目友人帳 メニュー 12.mkv(9.7MB)
    • 压缩文件 (sub)夏目友人帳と蛍火の杜へ.rar(870.3KB)
    • 文本文件 夏目友人帳と蛍火の杜へ.txt(10.4KB)
 

下载地址 磁力链接可以使用迅雷等主流软件进行下载

 
 

网友评论(0)

正在加载评论,请稍候......
发表我的看法(评论内容长度最多允许 1000 字)
评论内容
验证码