BT下载|动漫下载|动画|漫画 - 简单动漫

动漫bt下载 | 动画下载 | 动画片下载 | 资源搜索 | 发布资源 | 加入收藏

首页 » 动画分类 » 完整动画 » [xyx98] ISLAND (BDrip 1920x1080 hevc-yuv420p10 flac)

基本信息

共享用户: 简单动漫

发布时间: 2019/04/24 22:37:06

更新时间: 无更新

分享情况: 做种 , 下载 , 完成

健 康 度: 0

点击此处下载种子

使用磁力链下载


Tracker信息

Announce:

http://tracker.36dm.com:2710/announce

Scrape:

http://tracker.36dm.com:2710/scrape

Announce list:
  • http://www.36dm.com:2710/announce
  • http://tracker.36dm.com:2710/announce

资源介绍

  远离本土、漂浮在海洋中的“浦岛”。那里有让人错认为是天国的富裕的自然资源,以及有被复杂的过去和古老的习俗所束缚的人们生活着。   在这块被本土抛弃、被逐渐遗忘的土地上,居民们几乎不抱任何希望地在生活着。   突然某一天,一位自称“时间旅行者”的青年漂流到这座岛屿。除了“切那”这个名字和“某个使命”以外的记忆都丧失了的青年,与凛音、夏莲、纱罗这3位少女相遇了,并展开了改变岛的未来的行动。   围绕隐藏着古老的习俗与各种谜团的浦岛,青年和少女们的物语揭开了序幕。

罚抄的好朋友

建议玩游戏原作


mediainfo:

General Unique ID : 1 (0x1) Complete name : I:\animes\ISLAND\ISLAND 01.mkv Format : Matroska Format version : Version 4 File size : 435 MiB Duration : 23 min 40 s Overall bit rate mode : Variable Overall bit rate : 2 568 kb/s Movie name : ISLAND stage.01 再一次和你见面了 Encoded date : UTC 2019-04-21 07:07:44 Writing application : mkvmerge v30.1.0 ('Forever And More') 64-bit Writing library : libebml v1.3.6 + libmatroska v1.4.9 Video ID : 1 Format : HEVC Format/Info : High Efficiency Video Coding Format profile : Main [email protected]@Main Codec ID : V_MPEGH/ISO/HEVC Duration : 23 min 40 s Bit rate : 1 213 kb/s Width : 1 920 pixels Height : 1 080 pixels Display aspect ratio : 16:9 Frame rate mode : Constant Frame rate : 23.976 (24000/1001) FPS Color space : YUV Chroma subsampling : 4:2:0 Bit depth : 10 bits Bits/(Pixel*Frame) : 0.024 Stream size : 205 MiB (47%) Language : Japanese Default : Yes Forced : No Audio ID : 2 Format : FLAC Format/Info : Free Lossless Audio Codec Codec ID : A_FLAC Duration : 23 min 40 s Bit rate mode : Variable Bit rate : 1 353 kb/s Channel(s) : 2 channels Channel layout : L R Sampling rate : 48.0 kHz Frame rate : 11.719 FPS (4096 SPF) Bit depth : 24 bits Compression mode : Lossless Stream size : 229 MiB (53%) Writing library : CUETools 2.1.6 Language : Japanese Default : Yes Forced : No Menu 00:00:00.000 : en:Chapter 01 00:01:47.065 : en:Chapter 02 00:09:33.031 : en:Chapter 03 00:22:04.990 : en:Chapter 04 00:23:34.997 : en:Chapter 05




文件信息 文件总数:16,文件总大小:6.0GB

 
  • Folder ISLAND
    • Folder OP&ED
      • 视频文件 ISLAND NCED01.mkv(45.4MB)
      • 视频文件 ISLAND NCED02.mkv(51MB)
      • 视频文件 ISLAND NCOP01.mkv(57MB)
      • 视频文件 ISLAND NCOP02.mkv(71MB)
    • 视频文件 ISLAND 01.mkv(434.8MB)
    • 视频文件 ISLAND 02.mkv(471.1MB)
    • 视频文件 ISLAND 03.mkv(477.8MB)
    • 视频文件 ISLAND 04.mkv(535.7MB)
    • 视频文件 ISLAND 05.mkv(536MB)
    • 视频文件 ISLAND 06.mkv(458.9MB)
    • 视频文件 ISLAND 07.mkv(664.9MB)
    • 视频文件 ISLAND 08.mkv(490.6MB)
    • 视频文件 ISLAND 09.mkv(478.5MB)
    • 视频文件 ISLAND 10.mkv(440.9MB)
    • 视频文件 ISLAND 11.mkv(478.2MB)
    • 视频文件 ISLAND 12.mkv(429.9MB)
 

下载地址 磁力链接可以使用迅雷等主流软件进行下载

 
 

网友评论(0)

正在加载评论,请稍候......
发表我的看法(评论内容长度最多允许 1000 字)
评论内容
验证码