BT下载|动漫下载|动画|漫画 - 简单动漫

动漫bt下载 | 动画下载 | 动画片下载 | 资源搜索 | 发布资源 | 加入收藏

首页 » 动画分类 » 完整动画 » [DDD] FINAL FANTASY Ⅶ Advent Children Complete [BDrip 1080p HEVC FLAC][10bits]

基本信息

共享用户: 简单动漫

发布时间: 2020/10/14 22:36:10

更新时间: 无更新

分享情况: 做种 , 下载 , 完成

健 康 度: 0

点击此处下载种子

使用磁力链下载

Tracker信息

Announce:

http://tracker.36dm.com:2710/announce

Scrape:

http://tracker.36dm.com:2710/scrape

Announce list:
  • http://www.36dm.com:2710/announce
  • http://tracker.36dm.com:2710/announce

资源介绍

因为日英的cast表不一样,所以就做了了两个版本,英配音轨也就分开装了,你可以只收一版,也可以两版都收,请随意。

字幕:漫游字幕,感谢字幕组。

General Unique ID : 295340855450326394431308530741573536758 (0xDE30946944C8306ACD5359D12F634BF6) Complete name : D:\[DDD] FINAL FANTASY Ⅶ Advent Children Complete [BDrip 1080p HEVC FLAC][10bits]\FINAL FANTASY Ⅶ Advent Children.mkv Format : Matroska Format version : Version 4 File size : 7.74 GiB Duration : 2 h 6 min Overall bit rate mode : Variable Overall bit rate : 8 764 kb/s Encoded date : UTC 2020-10-14 07:19:13 Writing application : mkvmerge v43.0.0 ('The Quartermaster') 64-bit Writing library : libebml v1.3.10 + libmatroska v1.5.2 Video ID : 1 Format : HEVC Format/Info : High Efficiency Video Coding Format profile : Main [email protected]@Main Codec ID : V_MPEGH/ISO/HEVC Duration : 2 h 6 min Bit rate : 7 094 kb/s Width : 1 920 pixels Height : 1 080 pixels Display aspect ratio : 16:9 Frame rate mode : Constant Frame rate : 23.976 (24000/1001) FPS Color space : YUV Chroma subsampling : 4:2:0 Bit depth : 10 bits Bits/(Pixel*Frame) : 0.143 Stream size : 6.27 GiB (81%) Writing library : x265 3.4g73f96ff39:[Windows][GCC 11.0.0][64 bit] 10bit Encoding settings : cpuid=1111039 / frame-threads=3 / numa-pools=8 / wpp / no-pmode / no-pme / no-psnr / no-ssim / log-level=2 / input-csp=1 / input-res=1920x1080 / interlace=0 / total-frames=165732 / level-idc=0 / high-tier=1 / uhd-bd=0 / ref=4 / no-allow-non-conformance / no-repeat-headers / annexb / no-aud / no-hrd / info / hash=0 / no-temporal-layers / no-open-gop / min-keyint=23 / keyint=360 / gop-lookahead=0 / bframes=6 / b-adapt=2 / b-pyramid / bframe-bias=0 / rc-lookahead=60 / lookahead-slices=6 / scenecut=40 / hist-scenecut=0 / radl=0 / no-splice / no-intra-refresh / ctu=32 / min-cu-size=8 / no-rect / no-amp / max-tu-size=32 / tu-inter-depth=2 / tu-intra-depth=2 / limit-tu=0 / rdoq-level=2 / dynamic-rd=0.00 / no-ssim-rd / signhide / no-tskip / nr-intra=0 / nr-inter=0 / no-constrained-intra / no-strong-intra-smoothing / max-merge=3 / limit-refs=1 / no-limit-modes / me=3 / subme=5 / merange=48 / temporal-mvp / no-frame-dup / no-hme / weightp / weightb / no-analyze-src-pics / deblock=-1:-1 / no-sao / no-sao-non-deblock / rd=4 / selective-sao=0 / no-early-skip / rskip / no-fast-intra / no-tskip-fast / no-cu-lossless / b-intra / no-splitrd-skip / rdpenalty=0 / psy-rd=2.00 / psy-rdoq=3.00 / no-rd-refine / no-lossless / cbqpoffs=-2 / crqpoffs=-2 / rc=crf / crf=17.5 / qcomp=0.65 / qpstep=4 / stats-write=0 / stats-read=0 / ipratio=1.40 / pbratio=1.20 / aq-mode=2 / aq-strength=0.90 / cutree / zone-count=0 / no-strict-cbr / qg-size=32 / no-rc-grain / qpmax=69 / qpmin=0 / no-const-vbv / sar=0 / overscan=0 / videoformat=5 / range=0 / colorprim=2 / transfer=2 / colormatrix=2 / chromaloc=0 / display-window=0 / cll=0,0 / min-luma=0 / max-luma=1023 / log2-max-poc-lsb=8 / vui-timing-info / vui-hrd-info / slices=1 / no-opt-qp-pps / no-opt-ref-list-length-pps / no-multi-pass-opt-rps / scenecut-bias=0.05 / hist-threshold=0.01 / no-opt-cu-delta-qp / no-aq-motion / no-hdr10 / no-hdr10-opt / no-dhdr10-opt / no-idr-recovery-sei / analysis-reuse-level=0 / analysis-save-reuse-level=0 / analysis-load-reuse-level=0 / scale-factor=0 / refine-intra=0 / refine-inter=0 / refine-mv=1 / refine-ctu-distortion=0 / no-limit-sao / ctu-info=0 / no-lowpass-dct / refine-analysis-type=0 / copy-pic=1 / max-ausize-factor=1.0 / no-dynamic-refine / no-single-sei / no-hevc-aq / no-svt / no-field / qp-adaptation-range=1.00 / no-scenecut-aware-qpconformance-window-offsets / right=0 / bottom=0 / decoder-max-rate=0 Default : Yes Forced : No Audio ID : 2 Format : FLAC Format/Info : Free Lossless Audio Codec Codec ID : A_FLAC Duration : 2 h 6 min Bit rate mode : Variable Bit rate : 1 668 kb/s Channel(s) : 6 channels Channel layout : L R C LFE Ls Rs Sampling rate : 48.0 kHz Frame rate : 11.719 FPS (4096 SPF) Bit depth : 16 bits Compression mode : Lossless Stream size : 1.47 GiB (19%) Writing library : libFLAC 1.3.3 (UTC 2019-08-04) Default : Yes Forced : No Menu 00:00:00.000 : :Avant 00:01:28.713 : :Prologue 00:02:49.002 : :Chapter 01 00:04:28.268 : :Chapter 02 00:07:13.433 : :Chapter 03 00:10:16.866 : :Chapter 04 00:12:33.669 : :Chapter 05 00:15:06.655 : :Chapter 06 00:21:30.455 : :Chapter 07 00:23:19.022 : :Chapter 08 00:24:49.321 : :Chapter 09 00:29:14.252 : :Chapter 10 00:33:59.662 : :Chapter 11 00:38:14.667 : :Chapter 12 00:39:36.165 : :Chapter 13 00:42:11.820 : :Chapter 14 00:43:25.603 : :Chapter 15 00:44:49.687 : :Chapter 16 00:46:29.411 : :Chapter 17 00:49:14.952 : :Chapter 18 00:50:18.265 : :Chapter 19 00:53:40.550 : :Chapter 20 00:58:06.983 : :Chapter 21 00:59:23.643 : :Chapter 22 01:01:50.248 : :Chapter 23 01:03:31.516 : :Chapter 24 01:05:52.490 : :Chapter 25 01:08:56.966 : :Chapter 26 01:11:12.810 : :Chapter 27 01:13:20.896 : :Chapter 28 01:16:23.745 : :Chapter 29 01:19:10.704 : :Chapter 30 01:19:38.273 : :Chapter 31 01:21:54.784 : :Chapter 32 01:22:53.343 : :Chapter 33 01:29:57.725 : :Chapter 34 01:32:16.364 : :Chapter 35 01:35:29.807 : :Chapter 36 01:43:25.199 : :Chapter 37 01:45:03.297 : :Chapter 38 01:49:06.623 : :Chapter 39 01:50:22.616 : :Chapter 40 01:51:39.692 : :Chapter 41 01:55:12.405 : :End Credit 02:00:41.233 : :Epilogue

文件信息 文件总数:5,文件总大小:16.0GB

 
  • Folder [DDD] FINAL FANTASY Ⅶ Advent Children Complete [BDrip 1080p HEVC FLAC][10bits]
    • 视频文件 FINAL FANTASY Ⅶ Advent Children (English Version).mkv(7.8GB)
    • 视频文件 FINAL FANTASY Ⅶ Advent Children.mkv(7.7GB)
    • 视频文件 FINAL FANTASY Ⅶ On the Way to a Smile.mkv(470.4MB)
    • 压缩文件 FINAL FANTASY Ⅶ Advent Children Complete.rar(26.8KB)
    • 文本文件 FINAL FANTASY Ⅶ.txt(516Bytes)
 

下载地址 磁力链接可以使用迅雷等主流软件进行下载

 
 

网友评论(0)

正在加载评论,请稍候......
发表我的看法(评论内容长度最多允许 1000 字)
评论内容
验证码